搜索

[推荐] [超级无敌羊咩咩(第3季)]Shaun The Sheep.S03.HDTV.720p高清.x264[BT下载][30集全/2.9G]

  [复制链接]
blue 发表于 2021-5-28 19:52:04 | 显示全部楼层 |阅读模式
[超级无敌羊咩咩(第3季)]Shaun The Sheep.S03.HDTV.720p高清.x264[BT下载][30集全/2.9G]2262 作者:blue 帖子ID:259467

资源介绍

【片名】小羊肖恩(Shaun The Sheep)
【字幕】无
【集数】30
【格式】MKV

       这部英国黏土动画曾赢得国际艾美奖。故事主要讲述一只小绵羊和伙伴们在牧场的生活故事。它们不是那种兢兢业业吃草长毛的乖乖羊,而是调皮捣蛋又活泼好动的棉花糖,生活充满了快乐生趣。有时运动运动,或者和一墙之隔的三只小猪较劲,它们兴趣广泛,拿卷心菜当足球踢,自发水彩画课程,集体泡澡等等等等。羊儿们常用些异想天开的主意,搞笑可爱的故事就这样发生了一个又一个……

目前第三季又回来了,同样是在CBBC播出。虽说这部剧是在BBC儿童频道播出的,但大人们也会喜欢这样可爱的人物造型与诙谐幽默的剧情吧。仅仅是短短的6分钟,就能让心情愉快一整天!

D:超级无敌羊咩咩.Shaun The Sheep.E01.720p.x264.mkv
   General
      Complete name : D:超级无敌羊咩咩.Shaun The Sheep.E01.720p.x264.mkv
      Format : Matroska
      File size : 100.0 MiB
      Duration : 7mn 1s
      Overall bit rate : 1 992 Kbps
      Encoded date : UTC 2011-02-11 13:33:41
      Writing application : mkvmerge v2.1.0 ('Another Place To Fall') built on Aug 19 2007 13:40:07
      Writing library : libebml v0.7.7 + libmatroska v0.8.1
   Video #1
      ID : 1
      Format : AVC
      Format/Info : Advanced Video Codec
      Format profile : High@L3.1
      Format settings, CABAC : Yes
      Format settings, ReFrames : 4 frames
      Muxing mode : Container profile=Unknown@3.1
      Codec ID : V_MPEG4/ISO/AVC
      Duration : 7mn 1s
      Bit rate : 1 760 Kbps
      Nominal bit rate : 1 796 Kbps
      Width : 1 280 pixels
      Height : 720 pixels
      Display aspect ratio : 16:9
      Frame rate : 25.000 fps
      Resolution : 8 bits
      Colorimetry : 4:2:0
      Scan type : Progressive
      Bits/(Pixel*Frame) : 0.076
      Stream size : 88.3 MiB (88%)
      Writing library : x264 core 98 r1649 c54c47d
      Encoding settings : cabac=1 / ref=3 / deblock=1:0:0 / analyse=0x3:0x113 / me=hex / subme=8 / psy=1 / psy_rd=1.00:0.00 / mixed_ref=1 / me_range=16 / chroma_me=1 / trellis=2 / 8x8dct=1 / cqm=0 / deadzone=21,11 / fast_pskip=1 / chroma_qp_offset=-2 / threads=3 / sliced_threads=0 / nr=0 / decimate=1 / interlaced=0 / constrained_intra=0 / bframes=3 / b_pyramid=2 / b_adapt=1 / b_bias=2 / direct=1 / weightb=1 / weightp=2 / keyint=250 / keyint_min=25 / scenecut=40 / intra_refresh=0 / rc_lookahead=40 / rc=2pass / mbtree=1 / bitrate=1796 / ratetol=1.0 / qcomp=0.60 / qpmin=10 / qpmax=51 / qpstep=4 / cplxblur=20.0 / qblur=0.5 / ip_ratio=1.40 / aq=1:1.00
      Language : English
   Audio #2
      ID : 2
      Format : AC-3
      Format/Info : Audio Coding 3
      Codec ID : A_AC3
      Duration : 7mn 1s
      Bit rate mode : Constant
      Bit rate : 192 Kbps
      Channel(s) : 2 channels
      Channel positions : L R
      Sampling rate : 48.0 KHz
      Stream size : 9.64 MiB (10%)
   Text #3
      ID : 3
      Format : UTF-8
      Codec ID : S_TEXT/UTF8
      Codec ID/Info : UTF-8 Plain Text

游客,如果您要查看本帖隐藏内容请回复
回复

使用道具 举报

Bryant666 发表于 2021-5-30 09:53:50 | 显示全部楼层
ff4120 发表于 2021-5-28 22:38
谢谢楼主分享资源

非常优质的资源~
回复 点赞 踩你

使用道具 举报

wx_0fb0ad9aab 发表于 2021-5-30 07:17:25 | 显示全部楼层

感谢分享优质资源。
回复 点赞 踩你

使用道具 举报

wx_0fb0ad9aab 发表于 2021-5-28 22:38:13 | 显示全部楼层
超级无敌羊咩咩
回复 点赞 踩你

使用道具 举报

ff4120 发表于 2021-5-28 19:52:04 | 显示全部楼层
感谢分享优质资源
回复 点赞 踩你

使用道具 举报

fk2pycy 发表于 2021-5-28 22:37:50 | 显示全部楼层
谢谢您的分享!
回复 点赞 踩你

使用道具 举报

ff4120 发表于 2021-5-28 22:38:14 | 显示全部楼层
谢谢楼主分享资源
回复 点赞 踩你

使用道具 举报

3b7v 发表于 2021-5-29 08:33:03 | 显示全部楼层
感谢分享好资源
回复 点赞 踩你

使用道具 举报

ff4120 发表于 2021-5-29 08:42:52 | 显示全部楼层
thank you for your sharing.
回复 点赞 踩你

使用道具 举报

yp5yugc 发表于 2021-5-29 16:07:09 | 显示全部楼层
感谢楼主分享
回复 点赞 踩你

使用道具 举报

dgfp7 发表于 2021-5-30 07:16:42 | 显示全部楼层
辛苦了,谢谢分享
回复 点赞 踩你

使用道具 举报

您需要登录后才可以回帖 登录 | 注册

本版积分规则

广告投放|原英社团|著作权保护声明|网站导航|原版英语网

本站内容均为网友分享,严禁商用。本站不制作不储存相关资料,对内容不承担任何责任和义务。如有侵犯,请及时通知我们予以删除。

Copyright ©2020 原版英语网 合作及投诉Email:ads@en5556.com

快速回复 返回顶部 返回列表